3200 HDTURK :: Sunum detayları " Ankara'nin Dikmeni BL 06 720P WEB-DL-HDTURK " Yandex.Metrica
Kayıtlı değilsiniz, lütfen kayıt olun veya giriş yapın.
Şifre kurtarma:
E-posta ile
Gizli soru ile
Facebook

Altın (Sadece Upload kayıtlarınız tutulur! Rationuzu arttırmak için indirin ve seed edin!). X2 (Upload değerleri iki kat olarak hesaplanır). Ankara'nin Dikmeni BL 06 720P WEB-DL-HDTURK
10 puan 8 oy da.
10 puan 8 oy da.
Zaten oyladınız!
İndir Sunum İndir
Eklendi 17-04-2014 01:46 - (Son eş hareketi: 06-03-2015 02:03)
Tür DiZi - TV - WEB-DL
Boyut 2.24 GB 1 dosya
Tıklanma 49
İndirilme 28 defa
Yükleyen BillyÇ
Yorumlar 0 Yorumlar
Eşler 0 gönderen, 0 indiren = toplamda 0 eş
Reseed Reseed istemek için buraya tıklayın!
Aşağıdaki kullanıcılar torrenti yükleyen arkadaşımıza teşekkür ediyor: (38)

Sunum detayları " Ankara'nin Dikmeni BL 06 720P WEB-DL-HDTURK "
Ankara'nin Dikmeni BL 06 720P WEB-DL-HDTURK




 




 

 




Format                                   : MPEG-TS
File size                                : 2.24 GiB
Duration                                 : 1h 55mn
Overall bit rate mode                    : Variable
Overall bit rate                         : 2 779 Kbps

Video
ID                                       : 32 (0x20)
Menu ID                                  : 2056 (0x808)
Format                                   : AVC
Format/Info                              : Advanced Video Codec
Format profile                           : Baseline@L3.0
Format settings, CABAC                   : No
Format settings, ReFrames                : 1 frame
Format settings, GOP                     : M=1, N=50
Codec ID                                 : 27
Duration                                 : 1h 55mn
Bit rate mode                            : Constant
Bit rate                                 : 2 500 Kbps
Width                                    : 1 280 pixels
Height                                   : 720 pixels
Display aspect ratio                     : 16:9
Frame rate                               : 25.000 fps
Color space                              : YUV
Chroma subsampling                       : 4:2:0
Bit depth                                : 8 bits
Scan type                                : Progressive
Bits/(Pixel*Frame)                       : 0.109
Stream size                              : 2.02 GiB (90%)

Audio
ID                                       : 33 (0x21)
Menu ID                                  : 2056 (0x808)
Format                                   : AAC
Format/Info                              : Advanced Audio Codec
Format version                           : Version 4
Format profile                           : LC
Muxing mode                              : ADTS
Codec ID                                 : 15
Duration                                 : 1h 55mn
Bit rate mode                            : Variable
Bit rate                                 : 126 Kbps
Channel(s)                               : 2 channels
Channel positions                        : Front: L R
Sampling rate                            : 48.0 KHz
Compression mode                         : Lossy
Delay relative to video                  : 4ms
Stream size                              : 104 MiB (5%)





 
Henüz bir yorum eklenmedi. İlk siz olabilirsiniz

Dosya yolu Boyut
mkv  Ankara'nin Dikmeni BL 06 720P WEB-DL-HDTURK.mkv 2.24 GB
0 gönderen, 0 indiren = toplamda 0 eş
İstek reddedildi
Reseed istemek için buraya tıklayın!
Açılan pencerede sunumu rapor edebilirsiniz
Bu özellik devre dışıdır.