Yandex.Metrica
Kayıtlı değilsiniz, lütfen kayıt olun veya giriş yapın.
Şifre kurtarma: E-posta ile | Gizli soru ile
Facebook Twitter




Altın (Sadece Upload kayıtlarınız tutulur! Rationuzu arttırmak için indirin ve seed edin!). Kurtlar vadisi Pusu SE09BL239 (04.12.2014) HDTV XviD AC3-LTRG
8.4 puan 12 oy da.
8.4 puan 12 oy da.
Zaten oyladınız!
İndir Sunum İndir
Eklendi 05-12-2014 01:44 - (Son eş hareketi: Bugün 08:50)
Tür DiZi - TV - WEB-DL / YERLi
Boyut 806.56 MB 1 dosya
Tıklanma 143
İndirilme 269 defa
Yükleyen umathhell
Yorumlar 0 Yorumlar
Eşler 7 gönderen, 0 indiren = toplamda 7 eş
Aşağıdaki kullanıcılar torrenti yükleyen arkadaşımıza teşekkür ediyor: (98)

IMDB/Web Link
Kurtlar vadisi - Pusu
Kurtlar vadisi - PusuDirector:
Writers:
Genres: Action | Adventure | Drama | Thriller
Release Date: 19 April 2007 (Turkey) 
User Rating: 6.7/10 6.7/10 (4,066 votes)
Language: Turkish
Country: Turkey
Runtime: 120 min
Storyline: A continuation series of Osman Sinav's The Wolves Of The Valley. This produce focuses on politics, National Security and Regional Middle East problems. The Wolves of The Valley: Ambush serie also attracts attention by two film; The Wolves of The Valley: Iraq and The Wolves of The Valley: Palestine.
Plot Keywords: mafia| istanbul turkey| See All (2) 
IMDB Link: http://www.imdb.com/title/tt1018501/
Trailers & Videos

Sunum detayları " Kurtlar vadisi Pusu SE09BL239 (04.12.2014) HDTV XviD AC3-LTRG "
.:: Kurtlar vadisi Pusu SE09BL239 (04.12.2014) HDTV XviD AC3-LTRG ::.


 


Süha, Polat’a büyük sırrı anlatmaya devam eder. Bu kez harekete geçme zamanı gelmiştir. Akif, banka soygununun arkasındaki olan biteni öğrenmek için tüm imkanlarını seferber eder. Soygunun başrolünün işi hala bitmemişe benziyor. Pusat, zehir saçanlara cezasını vermek için tüm ekibini toplar. Baltazar’la büyük kapışma bir adım ötededir. Peki kim kazanacak? Fehmi, konseyi kurmaya hazırlanırken etrafının kimlerle sarıldığının farkına varmamışa benzer. Neyse ki durumu fark edecek birisi yanı başındadır.


  SCREENS  




  NFO  

Format                                   : AVI
Format/Info                              : Audio Video Interleave
File size                                : 807 MiB
Duration                                 : 1h 53mn
Overall bit rate                         : 990 Kbps
Writing library                          : MPlayer

Video
ID                                       : 0
Format                                   : MPEG-4 Visual
Format profile                           : Advanced Simple@L5
Format settings, BVOP                    : 2
Format settings, QPel                    : No
Format settings, GMC                     : No warppoints
Format settings, Matrix                  : Default (H.263)
Codec ID                                 : XVID
Codec ID/Hint                            : XviD
Duration                                 : 1h 53mn
Bit rate                                 : 857 Kbps
Width                                    : 720 pixels
Height                                   : 404 pixels
Display aspect ratio                     : 16:9
Frame rate                               : 25.000 fps
Color space                              : YUV
Chroma subsampling                       : 4:2:0
Bit depth                                : 8 bits
Scan type                                : Progressive
Compression mode                         : Lossy
Bits/(Pixel*Frame)                       : 0.118
Stream size                              : 698 MiB (87%)
Writing library                          : XviD 1.2.1 (UTC 2008-12-04)

Audio
ID                                       : 1
Format                                   : AC-3
Format/Info                              : Audio Coding 3
Mode extension                           : CM (complete main)
Format settings, Endianness              : Big
Codec ID                                 : 2000
Duration                                 : 1h 53mn
Bit rate mode                            : Constant
Bit rate                                 : 128 Kbps
Channel(s)                               : 2 channels
Channel positions                        : Front: L R
Sampling rate                            : 48.0 KHz
Bit depth                                : 16 bits
Compression mode                         : Lossy
Stream size                              : 104 MiB (13%)
Alignment                                : Split accross interleaves
Interleave, duration                     : 500 ms (12.50 video frames)
Interleave, preload duration             : 500 ms






BU SUNUMU 0,5 ORANINDA VEYA 96 SAAT SEED ETMELİSİNİZ


 

Benzer Sunumlar
Tür Ad Eklendi Yükleyen Gönderen İndiren
YERLi-HD Kurtlar Vadisi Pusu SE09BL230 (18.09.2014) HDTV XviD AC3-LTRG 19-09-2014 00:34
[İsimsiz]
0 0
YERLi-HD Kurtlar Vadisi Pusu SE09BL231 (25.09.2014) HDTV XviD AC3-LTRG 26-09-2014 00:29
[İsimsiz]
1 0
YERLi Kurtlar Vadisi Pusu SE09BL232 (02.10.2014) HDTV XviD AC3-LTRG 03-10-2014 00:54
[İsimsiz]
2 0
YERLi-HD Kurtlar Vadisi Pusu SE09BL233 (09.10.2014) HDTV XviD AC3-LTRG 10-10-2014 00:53
[İsimsiz]
1 0
YERLi Kurtlar vadisi Pusu SE09BL234 (16.10.2014) HDTV XviD AC3-LTRG 17-10-2014 01:25
[İsimsiz]
1 0
YERLi Kurtlar vadisi Pusu SE09BL235 (30.10.2014) HDTV XviD AC3-LTRG 31-10-2014 01:56
[İsimsiz]
2 0
YERLi Kurtlar vadisi Pusu (2007) SE09BL236 (13.11.2014) HDTV XviD AC3-LTRG 14-11-2014 01:44 umathhell 2 0
YERLi Kurtlar vadisi Pusu SE09BL237 (20.11.2014) HDTV XviD AC3-LTRG 21-11-2014 01:29 umathhell 3 0
YERLi Kurtlar Vadisi Pusu SE09BL238 (27.11.2014) HDTV XviD AC3-LTRG 28-11-2014 02:04
[İsimsiz]
4 0
YERLi Kurtlar vadisi Pusu SE09BL239 (04.12.2014) 720p HDTV x264 AC3-LTRG 05-12-2014 01:54 umathhell 2 0
Henüz bir yorum eklenmedi. İlk siz olabilirsiniz

Dosya yolu Boyut
avi  Kurtlar.vadisi.Pusu.SE09BL239.04122014.HDTV.XviD.AC3-LTRG.avi 806.56 MB
7 gönderen, 0 indiren = toplamda 7 eş
İstek reddedildi
Açılan pencerede sunumu rapor edebilirsiniz
Bu özellik devre dışıdır.